Skip to main content

Railroad Earth Live at 3rd & Lindsley on 2014-04-06




Railroad Earth
2014-04-06
3rd & Lindsley
Nashville, TN.


***16bit Source***


Source: Schoeps MK4V > KC5 > CMC6 > Sound Devices 744T (24bit/48kHz)
Location: FOB / DFC / 8ft
Transfer: 744T > HDD > Wavelab 6.1 (DSP/Crystal Re-Sampler/MBit+ Dither/Fades) > CDWave > TLH > FLAC (8)
Taped, Transferred & Seeded by Martin Medley


Set 1:

01. Long Way To Go
02. Lovin' You
03. Seven Story Mountain
04. When The Sun Gets In Your Blood
05. Grandfather Mountain
06. Happy Song


Set 2:

01. Chasin' A Rainbow
02. Mourning Flies
03. Hangtown Ball
04. Monkey
05. The Grass Roots of Eireann > Like A Buddha
06. Take A Bow
07. Lonecroft Farewell
08. Crossing The Gap
09. Gold Rush
10. Wayfaring Stranger

Encore:

11. Elko


[Show was broadcast live on 'Sunday Night Live' on Lightning 100]


Collection RailroadEarth
Band/Artist Railroad Earth
Venue 3rd & Lindsley
Location Nashville, TN.

Source Schoeps MK4V > KC5 > CMC6 > Sound Devices 744T (24bit/48kHz)
Lineage 744T > HDD > Wavelab 6.1 (DSP/Crystal Re-Sampler/MBit+ Dither/Fades) > CDWave > TLH > FLAC (8)
Taped by Martin Medley
Transferred by Martin Medley

Notes

shntool info:

length expanded size cdr WAVE problems fmt ratio filename
6:17.47 66613388 B --- -- ---xx flac 0.6178 rre2014-04-06s1t01.flac
4:23.43 46494380 B --- -- ---xx flac 0.5600 rre2014-04-06s1t02.flac
12:17.39 130098572 B --- -- ---xx flac 0.6060 rre2014-04-06s1t03.flac
7:28.43 79128380 B --- -- ---xx flac 0.6226 rre2014-04-06s1t04.flac
9:36.63 101754620 B --- -- ---xx flac 0.6365 rre2014-04-06s1t05.flac
3:57.31 41879756 B --- -- ---xx flac 0.6713 rre2014-04-06s1t06.flac
4:39.18 49257980 B --- -- ---xx flac 0.6503 rre2014-04-06s2t01.flac
9:28.08 100214060 B --- -- ---xx flac 0.6247 rre2014-04-06s2t02.flac
10:59.06 116261756 B --- -- ---xx flac 0.6321 rre2014-04-06s2t03.flac
4:23.22 46444988 B --- -- ---xx flac 0.6497 rre2014-04-06s2t04.flac
16:54.12 178897868 B --- -- ---xx flac 0.6820 rre2014-04-06s2t05.flac
6:18.17 66719228 B --- -- ---xx flac 0.5560 rre2014-04-06s2t06.flac
10:48.11 114333116 B --- -- ---xx flac 0.6413 rre2014-04-06s2t07.flac
4:21.45 46146284 B --- -- ---xx flac 0.6581 rre2014-04-06s2t08.flac
7:07.65 75475724 B --- -- ---xx flac 0.6633 rre2014-04-06s2t09.flac
9:43.54 102968252 B --- -- ---xx flac 0.5925 rre2014-04-06s2t10.flac
8:44.56 92565356 B --- -- ---xx flac 0.6523 rre2014-04-06s2t11.flac
137:29.55 1455253708 B 0.6327 (17 files)

Reviews

Reviewer: cocheese - - April 23, 2014
Subject: radio broadcast
I was listening to the show on the radio and it cut out a few songs in and started playing their regular station music. Sucked! I listened for about another hour, hoping it would come back to the live feed, but never did. Anyone else have the same problem? Did it ever come back live?
Uploaded by
mmedley
on 4/8/2014
Views
959
Favorites
1
Reviews
1
PEOPLE ALSO FOUND
Railroad Earth
by Railroad Earth
294
0
0
Source: Schoeps MK4V > KC5 > CMC6 > Sound Devices 722 (24bit/48kHz)
Railroad Earth
by Railroad Earth
823
1
3
( 3 reviews )
Source: Schoeps MK4V > KC5 > CMC6 > Sound Devices 722 (24bit/48kHz)
Railroad Earth
by Railroad Earth
959
1
1
( 1 reviews )
Source: Schoeps MK4V > KC5 > CMC6 > Sound Devices 744T (24bit/48kHz)
Scam
by Scam
254
0
1
( 1 reviews )
Source: Scheops MK4V > KC5 > CMC6 > Sound Devices 722 (24bit/48kHz)
Futurebirds
by Futurebirds
510
0
0
Source: SBD + Schoeps MK4V > KC5 > CMC6 > Sound Devices 744T
Stockholm Syndrome
by Stockholm Syndrome
102
1
0
Source: AKG c1000s > wUA5 > JB3
Futurebirds
by Futurebirds
159
0
0
Source: SBD + Schoeps MK4V > KC5 > CMC6 > Sound Devices 744T (24bit/48kHz)
Futurebirds
by Futurebirds
682
1
2
( 2 reviews )
Source: Source: SBD + On-stage Audience Matrix
Futurebirds
by Futurebirds
373
0
0
Source: Schoeps MK4V > KC5 > CMC6 > Sound Devices 722 (24bit/48kHz)
Outformation
by Outformation
231
0
0
Source: Neumann KM 183 > Lunatec V3 > Sound Devices 722 (24bit/96kHz)